<?xml version="1.0" standalone="no"?> <!DOCTYPE svg PUBLIC "-//W3C//DTD SVG 1.0//EN" "http://www.w3.org/TR/2001/REC-SVG-20010904/DTD/svg10.dtd" > <svg xmlns="http://www.w3.org/2000/svg" width="100%" height="100%">
<defs >
<font horiz-adv-x="900" ><font-face
    font-family="InfantylFat"
    units-per-em="1500"
    panose-1="0 0 4 0 0 0 0 0 0 0"
    ascent="1250"
    descent="-200"
    alphabetic="0" />
<missing-glyph horiz-adv-x="750" d="M94 0V1250H656V0H94ZM188 94H563V1156H188V94Z" />
<glyph unicode=" " glyph-name="space" horiz-adv-x="602" />
<glyph unicode="!" glyph-name="exclam" horiz-adv-x="416" d="M274 285L75 287L40 1000H311L274 285ZM178 -5Q129 -5 95 26T60 107Q60 156 94 188T178 220Q227 220 262 188T297 107Q297 58 262 27T178 -5Z" />
<glyph unicode="&quot;" glyph-name="quotedbl" horiz-adv-x="620" d="M478 820H331L291 1200H518L478 820ZM239 820H93L53 1200H279L239 820Z" />
<glyph unicode="#" glyph-name="numbersign" horiz-adv-x="839" d="M367 484H407L421 531H381L367 484ZM689 327H550L480 99H288L358 327H318L248 99H57L127 327H-27L35 484H175L190 531H28L88 688H238L300 889H492L430 688H470L532 889H723L661 688H807L745 531H613L598
484H749L689 327Z" />
<glyph unicode="$" glyph-name="dollar" horiz-adv-x="946" d="M593 167Q632 192 636 247Q641 313 593 340V167ZM423 380V143Q432 142 442 142V376L423 380ZM423 860V659L442 655V860H423ZM272 713V824Q243 802 246 768Q245 741 272 713ZM272 -97V9Q253 14 235
21V-6H63V329H234L235 202Q253 190 272 181V418Q174 447 143 475Q41 548 41 681Q41 698 43 716Q43 947 272 998V1107H423V1012Q433 1012 442 1011V1107H593V1005L752 1004L753 665L593 663V632Q743 601 811 521Q883 437 875 287Q862 55 593 1V-97H442V-13Q432 -12
423 -12V-97H272Z" />
<glyph unicode="%" glyph-name="percent" horiz-adv-x="1273" d="M936 -8Q808 -8 731 84Q660 169 660 300Q660 427 729 513Q805 607 936 607Q1064 607 1141 516Q1214 430 1214 300Q1214 170 1141 84Q1064 -8 936 -8ZM461 -8H269L751 989H943L461 -8ZM275 384Q147
384 70 475Q-2 560 -2 691Q-2 821 70 907Q147 999 275 999Q403 999 480 907Q552 821 552 691Q552 560 480 475Q404 384 275 384ZM936 441Q860 441 860 300Q860 159 936 159Q1014 159 1014 300Q1014 441 936 441ZM275 832Q198 832 198 691Q198 550 275 550Q352 550
352 691Q352 832 275 832Z" />
<glyph unicode="&amp;" glyph-name="ampersand" horiz-adv-x="427" d="M42 286L41 1002H310V285L42 286ZM172 1Q117 1 80 38T43 130Q43 184 82 221T176 258Q230 258 265 222T301 131Q301 75 265 38T172 1Z" />
<glyph unicode="&apos;" glyph-name="quotesingle" horiz-adv-x="381" d="M239 820H93L53 1200H279L239 820Z" />
<glyph unicode="(" glyph-name="parenleft" horiz-adv-x="587" d="M382 -168Q47 154 47 480Q47 807 382 1129H584Q297 770 297 480Q297 191 584 -168H382Z" />
<glyph unicode=")" glyph-name="parenright" horiz-adv-x="598" d="M223 -168H21Q308 191 308 480Q308 770 21 1129H223Q558 807 558 480Q558 154 223 -168Z" />
<glyph unicode="*" glyph-name="asterisk" horiz-adv-x="655" d="M443 590L578 488L375 352L307 502L242 352L39 488L173 592L-3 603L75 820L225 736L182 892H434L392 735L541 820L619 603L443 590Z" />
<glyph unicode="+" glyph-name="plus" horiz-adv-x="654" d="M418 451V246H248V451H38V607H248V798H418V607H628V451H418Z" />
<glyph unicode="," glyph-name="comma" horiz-adv-x="424" d="M237 -32Q192 -96 81 -172L-40 -121Q84 -3 78 167H306Q287 39 237 -32Z" />
<glyph unicode="-" glyph-name="ch260" horiz-adv-x="662" d="M63 470V590H603V470H63Z" />
<glyph unicode="." glyph-name="period" horiz-adv-x="403" d="M159 -5Q114 -5 80 18Q41 45 41 88Q41 131 80 158Q114 181 159 181Q204 181 239 158Q278 131 278 88Q278 45 239 18Q204 -5 159 -5Z" />
<glyph unicode="/" glyph-name="slash" horiz-adv-x="763" d="M208 -8H16L498 1000H690L208 -8Z" />
<glyph unicode="0" glyph-name="zero" horiz-adv-x="960" d="M801 162Q686 -5 480 -5Q281 -5 161 159Q55 304 55 500Q55 708 155 846Q270 1005 480 1005Q685 1005 801 851Q905 713 905 500Q905 313 801 162ZM590 713Q554 843 480 843Q403 843 368 705Q345 614
345 500Q345 389 369 295Q404 157 480 157Q555 157 591 295Q615 389 615 500Q615 622 590 713Z" />
<glyph unicode="1" glyph-name="one" horiz-adv-x="641" d="M275 0V143H355V838H235V1000H615V143H695V0H275Z" />
<glyph unicode="2" glyph-name="two" horiz-adv-x="960" d="M46 0Q156 129 371 388Q618 692 621 776Q608 843 508 843Q354 843 315 646L151 686Q169 842 262 923T512 1005Q660 1005 768 943Q898 869 898 735Q898 668 852 585L524 162H763V333H913V0H46Z" />
<glyph unicode="3" glyph-name="three" horiz-adv-x="960" d="M622 612Q827 565 827 320Q827 149 682 64Q565 -5 382 -5Q226 -5 72 90L150 230Q282 157 382 157Q527 157 527 307Q527 457 225 457L484 838H227V667H77V1000H888L622 612Z" />
<glyph unicode="4" glyph-name="four" horiz-adv-x="960" d="M770 238V143H850V0H430V143H510V238H60V383L492 998H770V400H900V238H770ZM510 604L365 400H510V604Z" />
<glyph unicode="5" glyph-name="five" horiz-adv-x="960" d="M442 -5Q272 -5 122 83L207 226Q324 153 419 153Q573 153 568 340Q563 481 343 481Q290 481 181 451V1009H831V667H681V863H441V637Q838 628 838 341Q838 170 722 79Q617 -5 442 -5Z" />
<glyph unicode="6" glyph-name="six" horiz-adv-x="960" d="M534 647Q666 642 760 552Q856 459 856 328Q856 178 740 83Q632 -5 479 -5Q330 -5 219 86Q101 183 104 329Q106 430 232 636L455 1000H761L534 647ZM482 486Q360 486 357 328Q354 162 481 162Q603 162
603 328Q603 486 482 486Z" />
<glyph unicode="7" glyph-name="seven" horiz-adv-x="960" d="M351 0H59L513 838H225V667H75V1000H901L351 0Z" />
<glyph unicode="8" glyph-name="eight" horiz-adv-x="960" d="M755 546Q880 453 880 309Q880 154 753 69Q643 -5 480 -5Q319 -5 208 70Q79 156 79 309Q79 457 205 545Q106 620 106 740Q106 875 229 946Q331 1005 480 1005Q631 1005 732 947Q854 877 854 740Q854
617 755 546ZM483 843Q372 843 372 736Q372 618 483 618Q595 618 595 736Q595 843 483 843ZM483 451Q364 451 364 306Q364 157 483 157Q603 157 603 306Q603 451 483 451Z" />
<glyph unicode="9" glyph-name="nine" horiz-adv-x="960" d="M426 353Q293 358 200 448Q104 541 104 672Q104 822 219 917Q327 1005 481 1005Q630 1005 740 914Q859 817 856 671Q854 570 728 364L505 0H199L426 353ZM479 838Q357 838 357 672Q357 514 478 514Q600
514 603 672Q606 838 479 838Z" />
<glyph unicode=":" glyph-name="colon" horiz-adv-x="388" d="M169 486Q120 486 86 517T51 597Q51 645 86 676T169 707Q218 707 253 676T288 597Q288 549 253 518T169 486ZM169 -11Q121 -11 86 20T51 99Q51 147 85 178T169 210Q218 210 253 179T288 99Q288 51
253 20T169 -11Z" />
<glyph unicode=";" glyph-name="semicolon" horiz-adv-x="374" d="M179 499Q130 499 95 530T60 610Q60 659 95 690T179 722Q228 722 262 691T297 610Q297 562 263 531T179 499ZM82 -168H-82Q16 -54 42 0Q76 73 72 197H302Q285 104 265 56Q223 -47 82 -168Z" />
<glyph unicode="&lt;" glyph-name="less" horiz-adv-x="899" d="M19 485V600L813 933V752L285 543L813 328V148L19 485Z" />
<glyph unicode="=" glyph-name="equal" horiz-adv-x="677" d="M2 652V800H634V652H2ZM2 350V498H634V350H2Z" />
<glyph unicode="&gt;" glyph-name="greater" horiz-adv-x="792" d="M19 148V328L547 543L19 752V933L813 600V485L19 148Z" />
<glyph unicode="?" glyph-name="question" horiz-adv-x="740" d="M336 363V238H86V550Q185 519 228 519Q414 519 423 683Q426 748 383 795T274 843Q178 843 62 774L-23 917Q125 1005 297 1005Q469 1005 576 920Q693 827 693 659Q693 373 336 363ZM214 -5Q165 -5
131 26T96 107Q96 156 130 188T214 220Q263 220 298 188T333 107Q333 58 298 27T214 -5Z" />
<glyph unicode="@" glyph-name="at" horiz-adv-x="1089" d="M599 742V758H798V392Q799 374 810 374Q840 374 854 449Q863 497 863 546Q863 674 779 758L776 761Q702 835 544 835Q395 835 296 741T197 498Q197 334 303 244Q403 159 569 159Q683 159 807 207V24Q743
-4 593 -4Q335 -4 177 115Q1 248 1 498Q1 722 166 864Q322 999 550 999Q773 999 911 886Q1059 764 1059 546Q1059 407 995 320Q923 221 788 221Q697 221 650 293Q587 221 487 221Q377 221 309 306Q246 384 246 497Q246 607 308 686Q376 772 483 772Q548 772 599
742ZM525 619Q485 619 462 576Q444 541 444 497Q444 453 462 418Q485 374 525 374Q567 374 590 426Q607 465 607 511Q607 553 588 584Q565 619 525 619Z" />
<glyph unicode="A" glyph-name="A" horiz-adv-x="1292" d="M765 0V143H833L792 238H442L406 143H475V0H25V143H113L455 1000H778L1127 143H1215V0H765ZM619 679L508 400H724L619 679Z" />
<glyph unicode="B" glyph-name="B" horiz-adv-x="992" d="M610 0H15V143H95V857H15V1000H548Q650 1000 722 949Q803 893 808 795Q814 679 738 626Q915 523 915 334Q915 200 830 102Q742 0 610 0ZM445 838H385V676H443Q545 676 545 765Q545 838 445 838ZM438 514H385V162H438Q515
162 573 202Q625 261 625 334Q625 413 571 463T438 514Z" />
<glyph unicode="C" glyph-name="C" horiz-adv-x="1023" d="M790 0V46Q682 -5 575 -5Q343 -5 190 129Q30 270 30 499Q30 730 189 870Q341 1005 575 1005Q682 1005 790 959V1000H940V667H790V768Q751 816 694 832Q654 843 575 843Q451 843 384 723Q330 626 330 499Q330
373 385 276Q452 157 575 157Q652 157 693 169Q748 185 790 232V333H940V0H790Z" />
<glyph unicode="D" glyph-name="D" horiz-adv-x="1079" d="M491 0H16V143H96V857H16V1000H491Q726 1000 877 868Q1036 730 1036 499Q1036 270 876 132Q723 0 491 0ZM678 726Q611 838 491 838H386V162H491Q614 162 681 278Q736 373 736 499Q736 629 678 726Z" />
<glyph unicode="E" glyph-name="E" horiz-adv-x="972" d="M26 0V143H106V857H26V1000H876V667H726V838H396V676H576V514H396V162H726V333H876V0H26Z" />
<glyph unicode="F" glyph-name="F" horiz-adv-x="941" d="M726 667V838H396V676H576V514H396V143H476V0H26V143H106V857H26V1000H876V667H726Z" />
<glyph unicode="G" glyph-name="G" horiz-adv-x="1059" d="M575 0Q342 0 190 131Q30 270 30 499Q30 730 189 870Q341 1005 575 1005Q682 1005 790 959V1000H940V726H790V768Q751 816 694 832Q654 843 575 843Q451 843 384 723Q330 627 330 499Q330 373 385 278Q452
162 575 162H650V514H480V676H940V0H575Z" />
<glyph unicode="H" glyph-name="H" horiz-adv-x="1119" d="M561 0V143H641V514H381V143H461V0H11V143H91V857H11V1000H461V857H381V676H641V857H561V1000H1011V857H931V143H1011V0H561Z" />
<glyph unicode="I" glyph-name="I" horiz-adv-x="569" d="M11 0V143H91V857H11V1000H461V857H381V143H461V0H11Z" />
<glyph unicode="J" glyph-name="J" horiz-adv-x="821" d="M584 53Q486 -5 341 -5Q121 -5 9 217L129 289Q206 167 318 162Q416 157 416 262V838H166V762H16V1000H706V262Q706 125 584 53Z" />
<glyph unicode="K" glyph-name="K" horiz-adv-x="1042" d="M789 -2Q712 -5 671 10Q584 42 529 105Q506 131 458 213Q424 271 388 286V143H468V0H18V143H98V857H18V1000H468V857H388V558L596 857H538V1000H928V857H836L565 473Q644 428 710 282Q761 168 808 169Q831
170 886 211L954 92Q870 1 789 -2Z" />
<glyph unicode="L" glyph-name="L" horiz-adv-x="938" d="M28 0V143H108V857H28V1000H478V857H398V162H728V333H878V0H28Z" />
<glyph unicode="M" glyph-name="M" horiz-adv-x="1329" d="M771 0V143H851V626L626 210L401 620V143H481V0H31V143H111V857H31V1000H391L626 574L861 1000H1221V857H1141V143H1221V0H771Z" />
<glyph unicode="N" glyph-name="N" horiz-adv-x="1204" d="M736 0L396 608V143H476V0H26V143H106V857H26V1000H386L726 377V857H646V1000H1096V857H1016V143H1096V0H736Z" />
<glyph unicode="O" glyph-name="O" horiz-adv-x="1104" d="M536 -5Q318 -5 166 138Q11 284 11 500Q11 718 166 863Q317 1005 536 1005Q760 1005 910 864T1061 500Q1061 279 908 135Q758 -5 536 -5ZM708 725Q645 843 536 843Q422 843 360 718Q311 620 311 500Q311
380 360 282Q422 157 536 157Q650 157 712 282Q761 380 761 500Q761 626 708 725Z" />
<glyph unicode="P" glyph-name="P" horiz-adv-x="966" d="M436 238H391V143H471V0H21V143H101V857H21V1000H436Q650 1000 778 917Q931 817 931 614Q931 417 775 319Q645 238 436 238ZM436 838H391V400H436Q631 400 631 614Q631 712 584 772Q532 838 436 838Z" />
<glyph unicode="Q" glyph-name="Q" horiz-adv-x="1102" d="M800 46L689 207Q763 301 763 428Q763 460 759 495Q759 618 711 714Q650 837 534 837Q420 837 358 714Q309 617 309 497Q309 398 348 303Q396 185 480 162L420 284L587 359L882 -60L662 -181L572 -11Q332
-5 177 124Q9 263 9 497Q9 714 164 861Q316 1005 534 1005Q757 1005 908 862T1059 497Q1059 248 800 46Z" />
<glyph unicode="R" glyph-name="R" horiz-adv-x="1107" d="M805 -5Q719 -5 625 44Q594 60 469 144Q423 175 391 185V143H471V0H21V143H101V857H21V1000H436Q650 1000 778 917Q931 817 931 614Q931 493 864 389Q793 279 681 248Q714 219 742 197Q786 162 805 162Q841
162 896 243L1010 130Q923 -5 805 -5ZM436 838H391V400H436Q631 400 631 614Q631 712 584 772Q532 838 436 838Z" />
<glyph unicode="S" glyph-name="S" horiz-adv-x="924" d="M706 57Q593 -5 426 -5Q284 -5 151 52V0H1V333H151V237Q291 162 426 162Q491 162 537 181Q601 208 601 262Q601 291 504 325Q428 350 275 402Q126 455 74 512Q1 592 1 719Q1 872 142 946Q254 1005 426
1005Q552 1005 661 951V1000H811V667H661V765Q572 834 425 838Q362 840 320 824Q260 802 261 748Q262 709 466 642Q641 584 724 524Q851 431 851 290Q851 136 706 57Z" />
<glyph unicode="T" glyph-name="T" horiz-adv-x="1004" d="M773 666V838H613V143H693V0H243V143H323V838H163V667H13V1000H923V666H773Z" />
<glyph unicode="U" glyph-name="U" horiz-adv-x="1154" d="M984 857V324Q984 162 840 72Q716 -5 539 -5Q363 -5 239 72Q94 162 94 322V857H14V1000H464V857H384V324Q384 162 539 162Q694 162 694 312V857H587V1000H1064V857H984Z" />
<glyph unicode="V" glyph-name="V" horiz-adv-x="1220" d="M1055 857L735 0H399L79 857H-8V1000H442V857H372L567 327L762 857H692V1000H1142V857H1055Z" />
<glyph unicode="W" glyph-name="W" horiz-adv-x="1448" d="M1276 857L1056 0H777L676 373L575 0H296L76 857H-9V1000H441V857H368L489 379L676 947L863 379L984 857H911V1000H1361V857H1276Z" />
<glyph unicode="X" glyph-name="X" horiz-adv-x="1100" d="M561 0V143H618L506 296L394 143H451V0H1V143H93L355 500L93 857H1V1000H451V857H394L506 704L618 857H561V1000H1011V857H919L657 500L919 143H1011V0H561Z" />
<glyph unicode="Y" glyph-name="Y" horiz-adv-x="1082" d="M919 857L651 492V143H731V0H281V143H361V492L93 857H1V1000H451V857H394L506 704L618 857H561V1000H1011V857H919Z" />
<glyph unicode="Z" glyph-name="Z" horiz-adv-x="945" d="M-9 0L445 838H207V667H57V1000H851L402 162H697V333H847V0H-9Z" />
<glyph unicode="[" glyph-name="bracketleft" horiz-adv-x="587" d="M382 -168Q47 154 47 480Q47 807 382 1129H584Q297 770 297 480Q297 191 584 -168H382Z" />
<glyph unicode="\" glyph-name="backslash" horiz-adv-x="760" d="M498 -8L16 1000H208L690 -8H498Z" />
<glyph unicode="]" glyph-name="bracketright" horiz-adv-x="598" d="M223 -168H21Q308 191 308 480Q308 770 21 1129H223Q558 807 558 480Q558 154 223 -168Z" />
<glyph unicode="^" glyph-name="asciicircum" horiz-adv-x="2755" d="M430 694Q430 607 339 559Q312 548 297 548H41V595H80V954H41V999H269Q309 999 340 974T374 911Q377 847 331 832Q430 786 430 694ZM279 897Q280 920 265 937Q249 951 223 951H189V846H222Q284
846 279 897ZM315 694Q315 733 287 763T220 794H188V595H220Q259 591 288 624Q315 654 315 694ZM936 550H750V594H787L763 661H590L563 595H598V550H421V594L459 595L611 998H741L896 595H936V550ZM745 709L676 891L607 709H745ZM1350 829Q1350 719 1235 663L1223
659Q1268 598 1293 598Q1302 598 1309 604L1332 555Q1308 540 1282 539Q1219 537 1127 658H1107V595H1151V549H961V595H1003V955H961V1000H1180Q1225 1000 1254 986Q1350 939 1350 829ZM1235 828Q1235 865 1215 902Q1188 954 1140 954H1109V707H1140Q1184 707 1211
747Q1236 782 1235 828ZM2685 401H2646V40H2685V-7H2493V40H2537V328L2427 106L2316 324V40H2359V-7H2167V40H2210L2211 403H2167V448H2315L2426 231L2538 448H2685V401ZM2286 547H1952V594H1991V953H1952V998H2286V860H2231V951H2099V797L2174 796V750H2099V595H2229V687H2286V547ZM2676
547H2342V594H2381V953H2342V998H2676V860H2621V951H2489V797L2564 796V750H2489V595H2619V687H2676V547ZM1576 4H1523V33Q1480 1 1413 2Q1318 3 1257 66T1196 225Q1196 320 1257 384T1413 448Q1441 448 1459 444Q1483 439 1523 421V447H1576V312H1526V341Q1526
349 1522 356Q1496 398 1442 398Q1378 398 1344 328Q1319 277 1319 225Q1319 168 1346 116Q1381 48 1444 48Q1462 48 1486 59T1518 85L1524 97V138H1576V4ZM2126 219Q2126 122 2047 53Q1979 -6 1883 -6Q1782 -6 1713 56Q1641 120 1641 219Q1641 319 1713 383Q1782
444 1883 444Q1984 444 2053 383Q2126 318 2126 219ZM2009 217Q2009 273 1986 322Q1952 394 1885 394Q1822 394 1783 320Q1760 276 1761 217Q1762 160 1788 112Q1826 41 1885 41Q1946 40 1982 110Q2009 162 2009 217ZM1910 951H1871V590H1910V543H1718V590H1762V878L1652
656L1541 874V590H1584V543H1392V590H1435L1436 953H1392V998H1540L1651 781L1763 998H1910V951ZM991 76Q991 106 1013 129T1065 152Q1095 152 1114 130T1134 77Q1134 46 1114 24T1062 1Q1033 1 1012 24T991 76Z" />
<glyph unicode="_" glyph-name="underscore" horiz-adv-x="739" d="M-25 -120V0H607V-120H-25Z" />
<glyph unicode="`" glyph-name="grave" horiz-adv-x="2755" d="M430 694Q430 607 339 559Q312 548 297 548H41V595H80V954H41V999H269Q309 999 340 974T374 911Q377 847 331 832Q430 786 430 694ZM279 897Q280 920 265 937Q249 951 223 951H189V846H222Q284 846
279 897ZM315 694Q315 733 287 763T220 794H188V595H220Q259 591 288 624Q315 654 315 694ZM936 550H750V594H787L763 661H590L563 595H598V550H421V594L459 595L611 998H741L896 595H936V550ZM745 709L676 891L607 709H745ZM1350 829Q1350 719 1235 663L1223 659Q1268
598 1293 598Q1302 598 1309 604L1332 555Q1308 540 1282 539Q1219 537 1127 658H1107V595H1151V549H961V595H1003V955H961V1000H1180Q1225 1000 1254 986Q1350 939 1350 829ZM1235 828Q1235 865 1215 902Q1188 954 1140 954H1109V707H1140Q1184 707 1211 747Q1236
782 1235 828ZM2685 401H2646V40H2685V-7H2493V40H2537V328L2427 106L2316 324V40H2359V-7H2167V40H2210L2211 403H2167V448H2315L2426 231L2538 448H2685V401ZM2286 547H1952V594H1991V953H1952V998H2286V860H2231V951H2099V797L2174 796V750H2099V595H2229V687H2286V547ZM2676
547H2342V594H2381V953H2342V998H2676V860H2621V951H2489V797L2564 796V750H2489V595H2619V687H2676V547ZM1576 4H1523V33Q1480 1 1413 2Q1318 3 1257 66T1196 225Q1196 320 1257 384T1413 448Q1441 448 1459 444Q1483 439 1523 421V447H1576V312H1526V341Q1526
349 1522 356Q1496 398 1442 398Q1378 398 1344 328Q1319 277 1319 225Q1319 168 1346 116Q1381 48 1444 48Q1462 48 1486 59T1518 85L1524 97V138H1576V4ZM2126 219Q2126 122 2047 53Q1979 -6 1883 -6Q1782 -6 1713 56Q1641 120 1641 219Q1641 319 1713 383Q1782
444 1883 444Q1984 444 2053 383Q2126 318 2126 219ZM2009 217Q2009 273 1986 322Q1952 394 1885 394Q1822 394 1783 320Q1760 276 1761 217Q1762 160 1788 112Q1826 41 1885 41Q1946 40 1982 110Q2009 162 2009 217ZM1910 951H1871V590H1910V543H1718V590H1762V878L1652
656L1541 874V590H1584V543H1392V590H1435L1436 953H1392V998H1540L1651 781L1763 998H1910V951ZM991 76Q991 106 1013 129T1065 152Q1095 152 1114 130T1134 77Q1134 46 1114 24T1062 1Q1033 1 1012 24T991 76Z" />
<glyph unicode="a" glyph-name="a" horiz-adv-x="1341" d="M814 0V143H882L841 238H491L455 143H524V0H74V143H162L504 1000H827L1176 143H1264V0H814ZM668 679L557 400H773L668 679Z" />
<glyph unicode="b" glyph-name="b" horiz-adv-x="986" d="M610 0H15V143H95V857H15V1000H548Q650 1000 722 949Q803 893 808 795Q814 679 738 626Q915 523 915 334Q915 200 830 102Q742 0 610 0ZM445 838H385V676H443Q545 676 545 765Q545 838 445 838ZM438 514H385V162H438Q515
162 573 202Q625 261 625 334Q625 413 571 463T438 514Z" />
<glyph unicode="c" glyph-name="c" horiz-adv-x="1023" d="M790 0V46Q682 -5 575 -5Q343 -5 190 129Q30 270 30 499Q30 730 189 870Q341 1005 575 1005Q682 1005 790 959V1000H940V667H790V768Q751 816 694 832Q654 843 575 843Q451 843 384 723Q330 626 330 499Q330
373 385 276Q452 157 575 157Q652 157 693 169Q748 185 790 232V333H940V0H790Z" />
<glyph unicode="d" glyph-name="d" horiz-adv-x="1079" d="M491 0H16V143H96V857H16V1000H491Q726 1000 877 868Q1036 730 1036 499Q1036 270 876 132Q723 0 491 0ZM678 726Q611 838 491 838H386V162H491Q614 162 681 278Q736 373 736 499Q736 629 678 726Z" />
<glyph unicode="e" glyph-name="e" horiz-adv-x="972" d="M26 0V143H106V857H26V1000H876V667H726V838H396V676H576V514H396V162H726V333H876V0H26Z" />
<glyph unicode="f" glyph-name="f" horiz-adv-x="941" d="M726 667V838H396V676H576V514H396V143H476V0H26V143H106V857H26V1000H876V667H726Z" />
<glyph unicode="g" glyph-name="g" horiz-adv-x="1059" d="M575 0Q342 0 190 131Q30 270 30 499Q30 730 189 870Q341 1005 575 1005Q682 1005 790 959V1000H940V726H790V768Q751 816 694 832Q654 843 575 843Q451 843 384 723Q330 627 330 499Q330 373 385 278Q452
162 575 162H650V514H480V676H940V0H575Z" />
<glyph unicode="h" glyph-name="h" horiz-adv-x="1119" d="M561 0V143H641V514H381V143H461V0H11V143H91V857H11V1000H461V857H381V676H641V857H561V1000H1011V857H931V143H1011V0H561Z" />
<glyph unicode="i" glyph-name="i" horiz-adv-x="569" d="M11 0V143H91V857H11V1000H461V857H381V143H461V0H11Z" />
<glyph unicode="j" glyph-name="j" horiz-adv-x="822" d="M584 53Q486 -5 341 -5Q121 -5 9 217L129 289Q206 167 318 162Q416 157 416 262V838H166V762H16V1000H706V262Q706 125 584 53Z" />
<glyph unicode="k" glyph-name="k" horiz-adv-x="1042" d="M789 -2Q712 -5 671 10Q584 42 529 105Q506 131 458 213Q424 271 388 286V143H468V0H18V143H98V857H18V1000H468V857H388V558L596 857H538V1000H928V857H836L565 473Q644 428 710 282Q761 168 808 169Q831
170 886 211L954 92Q870 1 789 -2Z" />
<glyph unicode="l" glyph-name="l" horiz-adv-x="938" d="M28 0V143H108V857H28V1000H478V857H398V162H728V333H878V0H28Z" />
<glyph unicode="m" glyph-name="m" horiz-adv-x="1329" d="M771 0V143H851V626L626 210L401 620V143H481V0H31V143H111V857H31V1000H391L626 574L861 1000H1221V857H1141V143H1221V0H771Z" />
<glyph unicode="n" glyph-name="n" horiz-adv-x="1204" d="M736 0L396 608V143H476V0H26V143H106V857H26V1000H386L726 377V857H646V1000H1096V857H1016V143H1096V0H736Z" />
<glyph unicode="o" glyph-name="o" horiz-adv-x="1104" d="M536 -5Q318 -5 166 138Q11 284 11 500Q11 718 166 863Q317 1005 536 1005Q760 1005 910 864T1061 500Q1061 279 908 135Q758 -5 536 -5ZM708 725Q645 843 536 843Q422 843 360 718Q311 620 311 500Q311
380 360 282Q422 157 536 157Q650 157 712 282Q761 380 761 500Q761 626 708 725Z" />
<glyph unicode="p" glyph-name="p" horiz-adv-x="966" d="M436 238H391V143H471V0H21V143H101V857H21V1000H436Q650 1000 778 917Q931 817 931 614Q931 417 775 319Q645 238 436 238ZM436 838H391V400H436Q631 400 631 614Q631 712 584 772Q532 838 436 838Z" />
<glyph unicode="q" glyph-name="q" horiz-adv-x="1102" d="M800 46L689 207Q763 301 763 428Q763 460 759 495Q759 618 711 714Q650 837 534 837Q420 837 358 714Q309 617 309 497Q309 398 348 303Q396 185 480 162L420 284L587 359L882 -60L662 -181L572 -11Q332
-5 177 124Q9 263 9 497Q9 714 164 861Q316 1005 534 1005Q757 1005 908 862T1059 497Q1059 248 800 46Z" />
<glyph unicode="r" glyph-name="r" horiz-adv-x="1086" d="M805 -5Q719 -5 625 44Q594 60 469 144Q423 175 391 185V143H471V0H21V143H101V857H21V1000H436Q650 1000 778 917Q931 817 931 614Q931 493 864 389Q793 279 681 248Q714 219 742 197Q786 162 805 162Q841
162 896 243L1010 130Q923 -5 805 -5ZM436 838H391V400H436Q631 400 631 614Q631 712 584 772Q532 838 436 838Z" />
<glyph unicode="s" glyph-name="s" horiz-adv-x="924" d="M706 57Q593 -5 426 -5Q284 -5 151 52V0H1V333H151V237Q291 162 426 162Q491 162 537 181Q601 208 601 262Q601 291 504 325Q428 350 275 402Q126 455 74 512Q1 592 1 719Q1 872 142 946Q254 1005 426
1005Q552 1005 661 951V1000H811V667H661V765Q572 834 425 838Q362 840 320 824Q260 802 261 748Q262 709 466 642Q641 584 724 524Q851 431 851 290Q851 136 706 57Z" />
<glyph unicode="t" glyph-name="t" horiz-adv-x="1004" d="M773 666V838H613V143H693V0H243V143H323V838H163V667H13V1000H923V666H773Z" />
<glyph unicode="u" glyph-name="u" horiz-adv-x="1154" d="M984 857V324Q984 162 840 72Q716 -5 539 -5Q363 -5 239 72Q94 162 94 322V857H14V1000H464V857H384V324Q384 162 539 162Q694 162 694 312V857H587V1000H1064V857H984Z" />
<glyph unicode="v" glyph-name="v" horiz-adv-x="1220" d="M1055 857L735 0H399L79 857H-8V1000H442V857H372L567 327L762 857H692V1000H1142V857H1055Z" />
<glyph unicode="w" glyph-name="w" horiz-adv-x="1448" d="M1276 857L1056 0H777L676 373L575 0H296L76 857H-9V1000H441V857H368L489 379L676 947L863 379L984 857H911V1000H1361V857H1276Z" />
<glyph unicode="x" glyph-name="x" horiz-adv-x="1100" d="M561 0V143H618L506 296L394 143H451V0H1V143H93L355 500L93 857H1V1000H451V857H394L506 704L618 857H561V1000H1011V857H919L657 500L919 143H1011V0H561Z" />
<glyph unicode="y" glyph-name="y" horiz-adv-x="1082" d="M919 857L651 492V143H731V0H281V143H361V492L93 857H1V1000H451V857H394L506 704L618 857H561V1000H1011V857H919Z" />
<glyph unicode="z" glyph-name="z" horiz-adv-x="945" d="M-9 0L445 838H207V667H57V1000H851L402 162H697V333H847V0H-9Z" />
<glyph unicode="{" glyph-name="braceleft" horiz-adv-x="587" d="M382 -168Q47 154 47 480Q47 807 382 1129H584Q297 770 297 480Q297 191 584 -168H382Z" />
<glyph unicode="|" glyph-name="bar" horiz-adv-x="420" d="M11 0V1000H301V0H11Z" />
<glyph unicode="}" glyph-name="braceright" horiz-adv-x="598" d="M223 -168H21Q308 191 308 480Q308 770 21 1129H223Q558 807 558 480Q558 154 223 -168Z" />
<glyph unicode="~" glyph-name="asciitilde" horiz-adv-x="2755" d="M430 694Q430 607 339 559Q312 548 297 548H41V595H80V954H41V999H269Q309 999 340 974T374 911Q377 847 331 832Q430 786 430 694ZM279 897Q280 920 265 937Q249 951 223 951H189V846H222Q284
846 279 897ZM315 694Q315 733 287 763T220 794H188V595H220Q259 591 288 624Q315 654 315 694ZM936 550H750V594H787L763 661H590L563 595H598V550H421V594L459 595L611 998H741L896 595H936V550ZM745 709L676 891L607 709H745ZM1350 829Q1350 719 1235 663L1223
659Q1268 598 1293 598Q1302 598 1309 604L1332 555Q1308 540 1282 539Q1219 537 1127 658H1107V595H1151V549H961V595H1003V955H961V1000H1180Q1225 1000 1254 986Q1350 939 1350 829ZM1235 828Q1235 865 1215 902Q1188 954 1140 954H1109V707H1140Q1184 707 1211
747Q1236 782 1235 828ZM2685 401H2646V40H2685V-7H2493V40H2537V328L2427 106L2316 324V40H2359V-7H2167V40H2210L2211 403H2167V448H2315L2426 231L2538 448H2685V401ZM2286 547H1952V594H1991V953H1952V998H2286V860H2231V951H2099V797L2174 796V750H2099V595H2229V687H2286V547ZM2676
547H2342V594H2381V953H2342V998H2676V860H2621V951H2489V797L2564 796V750H2489V595H2619V687H2676V547ZM1576 4H1523V33Q1480 1 1413 2Q1318 3 1257 66T1196 225Q1196 320 1257 384T1413 448Q1441 448 1459 444Q1483 439 1523 421V447H1576V312H1526V341Q1526
349 1522 356Q1496 398 1442 398Q1378 398 1344 328Q1319 277 1319 225Q1319 168 1346 116Q1381 48 1444 48Q1462 48 1486 59T1518 85L1524 97V138H1576V4ZM2126 219Q2126 122 2047 53Q1979 -6 1883 -6Q1782 -6 1713 56Q1641 120 1641 219Q1641 319 1713 383Q1782
444 1883 444Q1984 444 2053 383Q2126 318 2126 219ZM2009 217Q2009 273 1986 322Q1952 394 1885 394Q1822 394 1783 320Q1760 276 1761 217Q1762 160 1788 112Q1826 41 1885 41Q1946 40 1982 110Q2009 162 2009 217ZM1910 951H1871V590H1910V543H1718V590H1762V878L1652
656L1541 874V590H1584V543H1392V590H1435L1436 953H1392V998H1540L1651 781L1763 998H1910V951ZM991 76Q991 106 1013 129T1065 152Q1095 152 1114 130T1134 77Q1134 46 1114 24T1062 1Q1033 1 1012 24T991 76Z" />
</font>
</defs>
</svg>
